GloDLS.to - Download Movies, TV, Games and Other Torrents Free RSS 2.0enGloDLS.to - Download Movies, TV, Games and Other Torrents FreeGloDLS.to - Download Movies, TV, Games and Other Torrents Free RSS Feedhttp://glodls.toCopyright GloDLS.to - Download Movies, TV, Games and Other Torrents FreeSun, 19 Aug 2018 00:30:21 +0100 Lustery.E131.Eze.And.Jowy.Complete.Control.XXX.1080p.MP4-KTR[N1C] http://glodls.to/torrent.php?id=3602578 http://glodls.to/torrent.php?id=3602578 Sat, 18 Aug 2018 23:13:32 +0100 Adult XXX Lustery.E131.Eze.And.Jowy.Complete.Control.XXX.1080p.MP4-KTR


[Format]: MPEG-4
[Duration]: 35mn 34s
[Resolution]: 1 920 x 1 080 pixels
[Display aspect ratio]: 16:9
[Frame rate mode]: Variable
[Frame rate]: 24.813 fps
[Minimum frame rate]: 0.166 fps
[Maximum frame rate]: 25.000 fps


[color=green][b]#N1C -> To avoid fakes, ALWAYS check that the torrent was added by NO1CARES[/b][/color]






[b]Screens...[/b]
[url]http://HotImage.uk/img-5b78a7ab82daa.html[/url]
[url]http://HotImage.uk/img-5b78a7abb25af.html[/url]
[url]http://HotImage.uk/img-5b78a7abc5807.html[/url]
[url]http://HotImage.uk/img-5b78a7abd3e25.html[/url] ]]>
LittleCapriceDreams.18.08.17.Apolonia.Lapiedra.First.Touch.XXX.1080p.MP4-KTR[N1C] http://glodls.to/torrent.php?id=3602577 http://glodls.to/torrent.php?id=3602577 Sat, 18 Aug 2018 23:13:01 +0100 Adult XXX LittleCapriceDreams.18.08.17.Apolonia.Lapiedra.First.Touch.XXX.1080p.MP4-KTR


[Format]: MPEG-4
[Duration]: 25mn 51s
[Resolution]: 1 920 x 1 080 pixels
[Display aspect ratio]: 16:9
[Frame rate mode]: Constant
[Frame rate]: 25.000 fps


[color=green][b]#N1C -> To avoid fakes, ALWAYS check that the torrent was added by NO1CARES[/b][/color]






[b]Screens...[/b]
[url]http://HotImage.uk/img-5b78a79ceb9e1.html[/url]
[url]http://HotImage.uk/img-5b78a79d0b2b7.html[/url]
[url]http://HotImage.uk/img-5b78a79d19a05.html[/url]
[url]http://HotImage.uk/img-5b78a79d2577c.html[/url] ]]>
KimberLeeLive.18.08.17.Blowjob.After.Work.Trip.XXX.1080p.MP4-KTR[N1C] http://glodls.to/torrent.php?id=3602576 http://glodls.to/torrent.php?id=3602576 Sat, 18 Aug 2018 23:12:29 +0100 Adult XXX KimberLeeLive.18.08.17.Blowjob.After.Work.Trip.XXX.1080p.MP4-KTR


[Format]: MPEG-4
[Duration]: 13mn 47s
[Resolution]: 1 920 x 1 080 pixels
[Display aspect ratio]: 16:9
[Frame rate mode]: Constant
[Frame rate]: 29.970 fps


[color=green][b]#N1C -> To avoid fakes, ALWAYS check that the torrent was added by NO1CARES[/b][/color]






[b]Screens...[/b]
[url]http://HotImage.uk/img-5b78a78e03f1d.html[/url]
[url]http://HotImage.uk/img-5b78a78e60eff.html[/url]
[url]http://HotImage.uk/img-5b78a78e6d918.html[/url]
[url]http://HotImage.uk/img-5b78a78e7863a.html[/url] ]]>
Lazer.Team.2015.DC.1080p.BluRay.x264-UNVEiL[EtHD] http://glodls.to/torrent.php?id=3602575 http://glodls.to/torrent.php?id=3602575 Sat, 18 Aug 2018 23:12:25 +0100 Movies EtHD - EtHD - Et High-Definition Movies

-----------------------------------------------------
[url]https://ettv.online/home/[/url]

Lazer.Team.2015.DC.1080p.BluRay.x264-UNVEiL

http://www.imdb.com/title/tt3864024/

[Video Bitrate]:.............: 11.0mb/s
[Duration]:.............: 1 h 39 min
[Video Codec]:.............: AVC
[Resolution]:.............: 1920x808 px
[Aspect Ratio]:.............: 2.40:1
[Audio Codec]:.............: DTS
[Audio Bitrate]:.............: 1509kb/s
[Audio Channels]:.............: 5.1ch
[Audio Language]:.............: English

Genre .......................:

[color=green][b]#EtHD -> To avoid fakes, ALWAYS check that the torrent was added by EtHD [/b][/color]


[color=green][b]To keep us going Support us by donating Bitcoin: 3PaWcF82GoygLH9z4d7AocH6zcF6m15Wdv[/b][/color]

[b]Screens...[/b]

[url]https://extraimage.net/image/sxGK[/url]
[url]https://extraimage.net/image/sxGZ[/url]
[url]https://extraimage.net/image/sxGe[/url]
[url]https://extraimage.net/image/sxG4[/url]
[url]https://extraimage.net/image/sxGB[/url]
[url]https://extraimage.net/image/sxGG[/url]
]]>
Fatal.Vows.S06E02.Behind.Closed.Doors.720p.WEBRip.x264-CAFFEiNE[TGx] http://glodls.to/torrent.php?id=3602570 http://glodls.to/torrent.php?id=3602570 Sat, 18 Aug 2018 23:09:24 +0100 TV
[img]https://imgmak.com/images/2018/08/19/tmpbanner22193.jpg[/img]

[b]Fatal.Vows.S06E02.Behind.Closed.Doors.720p.WEBRip.x264-CAFFEiNE[TGx][/b]
[url]https://www.imdb.com/title/tt2505330[/url]


Upload provided by TorrentGalaxy
Visit us @ [url]https://torrentgalaxy.org[/url]


[b]SERIES INFO[/b]
[b]Genre[/b]: Crime Documentary Reality
[b]Stars[/b]: -
[b]Series Plot[/b]: When marriages fail, divorce can turn ugly - even, deadly: what was once a passionate union becomes plagued by spite, greed, betrayal and, literally, backstabbing. Investigation Discovery's newest series, FATAL VOWS, takes a new twist on tales of love turned lethal.

-----------------------------------------------------------------------------------

[b]EPISODE INFO[/b]
[b]Title[/b]: Behind Closed Doors
[b]Airdate[/b]: 2018-08-18
[b]Episode plot[/b]: Nurses Lara Crockett and Ricardo Muscolino meet on the night shift- he sets about creating a rich life for them, and she's happy to go along with it- Ricardo's scheming eventually drives Lara into the arms of another man with explosive results.

-----------------------------------------------------------------------------------

[b]MEDIAINFO[/b]
Container = Matroska (mkv)
Duration = 00:42:46.486
Filesize = 769 MiB
--ViDEO
Codec info = AVC High@L4.1 | V_MPEG4/ISO/AVC
Resolution = 1280x720
Display AR = 1.778 | 16:9
Bitrate = 2 384 kb/s
Framerate = CFR 24.000
Color space = YUV
Chroma subsampling = 4:2:0
Encoder = x264 - core 155 r2901 7d0ff22
--AUDiO
Codec info = AAC HE-AAC / LC | A_AAC
Channels = 2
Bitrate = 127 kb/s
Samplerate = 48.0 kHz / 24.0 kHz
Language = English

-----------------------------------------------------------------------------------

[b]SCREENSHOTS[/b]
(Click to enlarge)
[url=https://imgmak.com/image/gkw][img]https://imgmak.com/images/2018/08/19/HappyRoboto5792.th.jpg[/img][/url] [url=https://imgmak.com/image/gkJ][img]https://imgmak.com/images/2018/08/19/HappyRoboto25610.th.jpg[/img][/url] [url=https://imgmak.com/image/gkW][img]https://imgmak.com/images/2018/08/19/HappyRoboto27857.th.jpg[/img][/url] [url=https://imgmak.com/image/gkd][img]https://imgmak.com/images/2018/08/19/HappyRoboto11381.th.jpg[/img][/url] [url=https://imgmak.com/image/gks][img]https://imgmak.com/images/2018/08/19/HappyRoboto17990.th.jpg[/img][/url] [url=https://imgmak.com/image/gk4][img]https://imgmak.com/images/2018/08/19/HappyRoboto25068.th.jpg[/img][/url]
[/center] ]]>
Lazer.Team.2015.DC.720p.BluRay.x264-UNVEiL[EtHD] http://glodls.to/torrent.php?id=3602569 http://glodls.to/torrent.php?id=3602569 Sat, 18 Aug 2018 23:08:39 +0100 Movies EtHD - Et High-Definition

-----------------------------------------------------
[url]https://www.ettv.tv/home/[/url]

Lazer.Team.2015.DC.720p.BluRay.x264-UNVEiL

http://www.imdb.com/title/tt3864024/

[Video Bitrate]:.............: 6293 kbps
[Duration]:.............: 1h 39mn
[Video Codec]:.............: AVC
[Resolution]:.............: 1280x544 px
[Aspect Ratio]:.............: 2.35:1
[Audio Codec]:.............: DTS
[Audio Bitrate]:.............: 1509 kbps
[Audio Channels]:.............: 5.1ch
[Audio Language]:.............: English

Genre .......................:

[color=green][b]#EtHD -> To avoid fakes, ALWAYS check that the torrent was added by EtHD [/b][/color]


[color=green][b]To keep us going Support us by donating Bitcoin: 3PaWcF82GoygLH9z4d7AocH6zcF6m15Wdv[/b][/color]

[b]Screens...[/b]

[url]https://extraimage.net/image/sxGI[/url]
[url]https://extraimage.net/image/sxGd[/url]
[url]https://extraimage.net/image/sxGh[/url]
[url]https://extraimage.net/image/sxGb[/url]
[url]https://extraimage.net/image/sxG3[/url]
[url]https://extraimage.net/image/sxG0[/url]
]]>
AdultAuditions.E251.Evas.Re-Audition.XXX.720p.MP4-KTR[N1C] http://glodls.to/torrent.php?id=3602568 http://glodls.to/torrent.php?id=3602568 Sat, 18 Aug 2018 23:08:31 +0100 Adult XXX AdultAuditions.E251.Evas.Re-Audition.XXX.720p.MP4-KTR


[Format]: MPEG-4
[Duration]: 15mn 43s
[Resolution]: 1 280 x 720 pixels
[Display aspect ratio]: 16:9
[Frame rate mode]: Constant
[Frame rate]: 29.970 fps


[color=green][b]#N1C -> To avoid fakes, ALWAYS check that the torrent was added by NO1CARES[/b][/color]






[b]Screens...[/b]
[url]http://HotImage.uk/img-5b78a6a5ec258.html[/url]
[url]http://HotImage.uk/img-5b78a6a602aa2.html[/url]
[url]http://HotImage.uk/img-5b78a6a60b1aa.html[/url]
[url]http://HotImage.uk/img-5b78a6a612a4e.html[/url] ]]>
Fatal.Vows.S06E02.Behind.Closed.Doors.WEBRip.x264-CAFFEiNE[TGx] http://glodls.to/torrent.php?id=3602567 http://glodls.to/torrent.php?id=3602567 Sat, 18 Aug 2018 23:06:57 +0100 TV
[img]https://imgmak.com/images/2018/08/19/tmpbanner18172.jpg[/img]

[b]Fatal.Vows.S06E02.Behind.Closed.Doors.WEBRip.x264-CAFFEiNE[TGx][/b]
[url]https://www.imdb.com/title/tt2505330[/url]


Upload provided by TorrentGalaxy
Visit us @ [url]https://torrentgalaxy.org[/url]


[b]SERIES INFO[/b]
[b]Genre[/b]: Crime Documentary Reality
[b]Stars[/b]: -
[b]Series Plot[/b]: When marriages fail, divorce can turn ugly - even, deadly: what was once a passionate union becomes plagued by spite, greed, betrayal and, literally, backstabbing. Investigation Discovery's newest series, FATAL VOWS, takes a new twist on tales of love turned lethal.

-----------------------------------------------------------------------------------

[b]EPISODE INFO[/b]
[b]Title[/b]: Behind Closed Doors
[b]Airdate[/b]: 2018-08-18
[b]Episode plot[/b]: Nurses Lara Crockett and Ricardo Muscolino meet on the night shift- he sets about creating a rich life for them, and she's happy to go along with it- Ricardo's scheming eventually drives Lara into the arms of another man with explosive results.

-----------------------------------------------------------------------------------

[b]MEDIAINFO[/b]
Container = Matroska (mkv)
Duration = 00:42:46.486
Filesize = 245 MiB
--ViDEO
Codec info = AVC High@L3.1 | V_MPEG4/ISO/AVC
Resolution = 720x404
Display AR = 1.782 | 16:9
Bitrate = 671 kb/s
Framerate = CFR 24.000
Color space = YUV
Chroma subsampling = 4:2:0
Encoder = x264 - core 155 r2901 7d0ff22
--AUDiO
Codec info = AAC HE-AAC / LC | A_AAC
Channels = 2
Bitrate = 127 kb/s
Samplerate = 48.0 kHz / 24.0 kHz
Language = English

-----------------------------------------------------------------------------------

[b]SCREENSHOTS[/b]
(Click to enlarge)
[url=https://imgmak.com/image/gkI][img]https://imgmak.com/images/2018/08/19/HappyRoboto5953.th.jpg[/img][/url] [url=https://imgmak.com/image/gkq][img]https://imgmak.com/images/2018/08/19/HappyRoboto17194.th.jpg[/img][/url] [url=https://imgmak.com/image/gkt][img]https://imgmak.com/images/2018/08/19/HappyRoboto10482.th.jpg[/img][/url] [url=https://imgmak.com/image/gk2][img]https://imgmak.com/images/2018/08/19/HappyRoboto9302.th.jpg[/img][/url] [url=https://imgmak.com/image/gkF][img]https://imgmak.com/images/2018/08/19/HappyRoboto14511.th.jpg[/img][/url] [url=https://imgmak.com/image/gki][img]https://imgmak.com/images/2018/08/19/HappyRoboto11390.th.jpg[/img][/url]
[/center] ]]>
Fatal.Vows.S06E02.Behind.Closed.Doors.XviD-AFG[TGx] http://glodls.to/torrent.php?id=3602566 http://glodls.to/torrent.php?id=3602566 Sat, 18 Aug 2018 23:04:58 +0100 TV
[img]https://imgmak.com/images/2018/08/19/tmpbanner20034.jpg[/img]

[b]Fatal.Vows.S06E02.Behind.Closed.Doors.XviD-AFG[TGx][/b]
[url]https://www.imdb.com/title/tt2505330[/url]


Upload provided by TorrentGalaxy
Visit us @ [url]https://torrentgalaxy.org[/url]


[b]SERIES INFO[/b]
[b]Genre[/b]: Crime Documentary Reality
[b]Stars[/b]: -
[b]Series Plot[/b]: When marriages fail, divorce can turn ugly - even, deadly: what was once a passionate union becomes plagued by spite, greed, betrayal and, literally, backstabbing. Investigation Discovery's newest series, FATAL VOWS, takes a new twist on tales of love turned lethal.

-----------------------------------------------------------------------------------

[b]EPISODE INFO[/b]
[b]Title[/b]: Behind Closed Doors
[b]Airdate[/b]: 2018-08-18
[b]Episode plot[/b]: Nurses Lara Crockett and Ricardo Muscolino meet on the night shift- he sets about creating a rich life for them, and she's happy to go along with it- Ricardo's scheming eventually drives Lara into the arms of another man with explosive results.

-----------------------------------------------------------------------------------

[b]MEDIAINFO[/b]
Container = AVI (avi)
Duration = 00:42:46.512
Filesize = 346 MiB
--ViDEO
Codec info = xvid | xvid
Resolution = 640x360
Display AR = 1.778 | 16:9
Bitrate = 990 kb/s
Framerate = 24.000
Color space =
Chroma subsampling =
Encoder =
--AUDiO
Codec info = MPEG Audio Layer 3 | 55
Channels = 2
Bitrate = CBR 128 kb/s
Samplerate = 48.0 kHz
Language = English

-----------------------------------------------------------------------------------

[b]SCREENSHOTS[/b]
(Click to enlarge)
[url=https://imgmak.com/image/gkQ][img]https://imgmak.com/images/2018/08/19/HappyRoboto20933.th.jpg[/img][/url] [url=https://imgmak.com/image/gkS][img]https://imgmak.com/images/2018/08/19/HappyRoboto18264.th.jpg[/img][/url] [url=https://imgmak.com/image/gkZ][img]https://imgmak.com/images/2018/08/19/HappyRoboto14653.th.jpg[/img][/url] [url=https://imgmak.com/image/gkc][img]https://imgmak.com/images/2018/08/19/HappyRoboto13754.th.jpg[/img][/url] [url=https://imgmak.com/image/gkn][img]https://imgmak.com/images/2018/08/19/HappyRoboto30005.th.jpg[/img][/url] [url=https://imgmak.com/image/gkr][img]https://imgmak.com/images/2018/08/19/HappyRoboto234.th.jpg[/img][/url]
[/center] ]]>
Judge Judy S22E232 Pit Bull Mating Mayhem Slashed Tires HDTV x264-W4F http://glodls.to/torrent.php?id=3602516 http://glodls.to/torrent.php?id=3602516 Sat, 18 Aug 2018 23:00:03 +0100 TV http://www.tvrage.com/schedule.php?show_yesterday=1. ]]> Lazer.Team.2015.DC.BDRip.x264-UNVEiL[EtMovies] http://glodls.to/torrent.php?id=3602515 http://glodls.to/torrent.php?id=3602515 Sat, 18 Aug 2018 22:51:32 +0100 Movies EtMovies - Et High-Definition

-----------------------------------------------------

Lazer.Team.2015.DC.BDRip.x264-UNVEiL

http://www.imdb.com/title//

[Video Bitrate]:.............: 976kb/s
[Duration]:.............: 1 h 39 min
[Video Codec]:.............: AVC
[Resolution]:.............: 720x302 px
[Aspect Ratio]:.............: 2.40:1
[Audio Codec]:.............: AAC
[Audio Bitrate]:.............: 122kb/s
[Audio Channels]:.............: 2.0ch
[Audio Language]:.............: English

Genre .......................:

[color=green][b]#EtMovies -> To avoid fakes, ALWAYS check that the torrent was added by EtMovies [/b][/color]


[url]https://www.ettv.tv/home/[/url]

[color=green][b]To keep us going Support us by donating Bitcoin: 3PaWcF82GoygLH9z4d7AocH6zcF6m15Wdv[/b][/color]

[b]Screens...[/b]

[url]https://extraimage.net/image/sxrV[/url]
[url]https://extraimage.net/image/sxru[/url]
[url]https://extraimage.net/image/sxrv[/url]
[url]https://extraimage.net/image/sxrA[/url]
[url]https://extraimage.net/image/sxrW[/url]
[url]https://extraimage.net/image/sxG2[/url]
]]>
AbbyWinters 18 08 17 Dasha D Solo 480p MP4-XXX http://glodls.to/torrent.php?id=3602514 http://glodls.to/torrent.php?id=3602514 Sat, 18 Aug 2018 22:48:20 +0100 Adult XXX
[b]Screens :[/b]

[url]https://22pixx.xyz/ia-i/5b78a2361981e.jpeg.html[/url]

[url]https://22pixx.xyz/ia-i/5b78a2360e6cd.jpeg.html[/url]

[url]https://22pixx.xyz/ia-i/5b78a2360325a.jpeg.html[/url]

[url]https://22pixx.xyz/ia-i/5b78a235ebd86.jpeg.html[/url]

[url]https://22pixx.xyz/ia-i/5b78a232b9237.jpeg.html[/url]

File Size : 241 MiB
Duration : 29mn 17s
Video : h264, yuv420p, 854x480p, 1024 Kbps
Audio : aac , 2 ch, stereo , 128 Kbps ]]>
AuntJudys 18 08 17 Diana Seduces A Young Man 480p MP4-XXX http://glodls.to/torrent.php?id=3602513 http://glodls.to/torrent.php?id=3602513 Sat, 18 Aug 2018 22:38:44 +0100 Adult XXX
[b]Screens :[/b]

[url]https://22pixx.xyz/ia-i/5b789ff560c10.jpeg.html[/url]

[url]https://22pixx.xyz/ia-i/5b789ff555b5f.jpeg.html[/url]

[url]https://22pixx.xyz/ia-i/5b789ff54a701.jpeg.html[/url]

[url]https://22pixx.xyz/ia-i/5b789ff53f526.jpeg.html[/url]

[url]https://22pixx.xyz/ia-i/5b789ff3666e4.jpeg.html[/url]

File Size : 159 MiB
Duration : 18mn 38s
Video : h264, yuv420p, 854x480p, 1024 Kbps
Audio : aac , 2 ch, stereo , 128 Kbps ]]>
PornMegaLoad 18 08 18 Alice Wayne Alice In Wonderland 480p MP4-XXX http://glodls.to/torrent.php?id=3602512 http://glodls.to/torrent.php?id=3602512 Sat, 18 Aug 2018 22:37:32 +0100 Adult XXX
[b]Screens :[/b]

[url]https://22pixx.xyz/ia-i/5b789fae00eb7.jpeg.html[/url]

[url]https://22pixx.xyz/ia-i/5b789fade9e2e.jpeg.html[/url]

[url]https://22pixx.xyz/ia-i/5b789faddebec.jpeg.html[/url]

[url]https://22pixx.xyz/ia-i/5b789fadd396d.jpeg.html[/url]

[url]https://22pixx.xyz/ia-i/5b789fa3aa99f.jpeg.html[/url]

File Size : 149 MiB
Duration : 17mn 45s
Video : h264, yuv420p, 854x480p, 1024 Kbps
Audio : aac , 2 ch, stereo , 128 Kbps ]]>
Beast.2017.1080p.BluRay.X264-AMIABLE[TGx] http://glodls.to/torrent.php?id=3602511 http://glodls.to/torrent.php?id=3602511 Sat, 18 Aug 2018 22:34:23 +0100 Movies [b]Beast.2017.1080p.BluRay.X264-AMIABLE[TGx][/b]
IMDB - [url]https://www.imdb.com/title/tt2771200[/url]

Upload provided by TorrentGalaxy
Visit us @ [url]https://torrentgalaxy.org[/url]

-----------------------------------------------------------------------------------

[b]GENERAL INFO[/b]
[b]Genre[/b]: Family, Fantasy, Romance
[b]Director[/b]: Bill Condon
[b]Stars[/b]: Emma Watson, Dan Stevens, Luke Evans, Kevin Kline, Josh Gad
[b]Plot[/b]: A live-action adaptation of Disney's version of the classic tale of a cursed prince and a beautiful young woman who helps him break the spell.

-----------------------------------------------------------------------------------

[b]COVER[/b]
[url=https://imgmak.com/image/gkE][img]https://imgmak.com/images/2018/08/19/tmpposter6718.jpg[/img][/url]

-----------------------------------------------------------------------------------

[b]MEDIAINFO[/b]
Container = Matroska (mkv)
Duration = 01:46:26.710
Filesize = 8 GiB
ViDEO
Codec info = AVC High@L4.1 | V_MPEG4/ISO/AVC
Resolution = 1920x808
Display AR = 2.376 | 2.40:1
Bitrate = 8 781 kb/s
Framerate = CFR 24.000
Color space = YUV
Chroma subsampling = 4:2:0
Encoder = x264 - core 157 r2932 303c484
AUDiO
Codec info = DTS | A_DTS
Channels = 6
Bitrate = CBR 1 509 kb/s
Samplerate = 48.0 kHz
Language = English

-----------------------------------------------------------------------------------

[b]SCREENSHOTS[/b]
(Click to enlarge)
[url=https://imgmak.com/image/gkh][img]https://imgmak.com/images/2018/08/19/HappyRoboto26463.th.jpg[/img][/url] [url=https://imgmak.com/image/gkl][img]https://imgmak.com/images/2018/08/19/HappyRoboto27943.th.jpg[/img][/url] [url=https://imgmak.com/image/gkV][img]https://imgmak.com/images/2018/08/19/HappyRoboto5739.th.jpg[/img][/url] [url=https://imgmak.com/image/gke][img]https://imgmak.com/images/2018/08/19/HappyRoboto5965.th.jpg[/img][/url] [url=https://imgmak.com/image/gkg][img]https://imgmak.com/images/2018/08/19/HappyRoboto32052.th.jpg[/img][/url] [url=https://imgmak.com/image/gko][img]https://imgmak.com/images/2018/08/19/HappyRoboto25871.th.jpg[/img][/url]
[/center] ]]>
Judge.Judy.S22E232.Pit.Bull.Mating.Mayhem.Slashed.Tires.HDTV.x264-W4F[ettv] http://glodls.to/torrent.php?id=3602510 http://glodls.to/torrent.php?id=3602510 Sat, 18 Aug 2018 22:31:22 +0100 TV Et TV Shows


[url]https://ettv.online/home/[/url]

Judge.Judy.S22E232.Pit.Bull.Mating.Mayhem.Slashed.Tires.HDTV.x264-W4F


[Format]: Matroska
[Duration]: 19mn 50s
[Resolution]: 720 x 404 pixels
[Display aspect ratio]: 16:9
[Frame rate mode]: Constant
[Frame rate]: 60.000 fps
[Original frame rate]: 59.940 fps


[color=green][b]#ettv -> To avoid fakes, ALWAYS check that the torrent was added by ettv[/b][/color]




[color=green][b]To keep us going Support us by donating Bitcoin: 3PaWcF82GoygLH9z4d7AocH6zcF6m15Wdv[/b][/color]

[b]Screens...[/b]

[url]https://extraimage.net/image/sxrr[/url]
[url][/url]
[url][/url]
[url][/url]
[url][/url]
[url][/url]
]]>
AuntJudys 18 08 16 Helen Volga Masturbates While On Vacation 480p MP4-XXX http://glodls.to/torrent.php?id=3602509 http://glodls.to/torrent.php?id=3602509 Sat, 18 Aug 2018 22:30:20 +0100 Adult XXX
[b]Screens :[/b]

[url]https://22pixx.xyz/ia-i/5b789dfdd403e.jpeg.html[/url]

[url]https://22pixx.xyz/ia-i/5b789dfdc8e59.jpeg.html[/url]

[url]https://22pixx.xyz/ia-i/5b789dfdbdc6f.jpeg.html[/url]

[url]https://22pixx.xyz/ia-i/5b789dfdb2946.jpeg.html[/url]

[url]https://22pixx.xyz/ia-i/5b789df36832d.jpeg.html[/url]

File Size : 138 MiB
Duration : 16mn 10s
Video : h264, yuv420p, 854x480p, 1024 Kbps
Audio : aac , 2 ch, stereo , 128 Kbps ]]>
Beast.2017.1080p.BluRay.X264-AMIABLE[EtHD] http://glodls.to/torrent.php?id=3602508 http://glodls.to/torrent.php?id=3602508 Sat, 18 Aug 2018 22:28:47 +0100 Movies EtHD - EtHD - Et High-Definition Movies

-----------------------------------------------------
[url]https://ettv.online/home/[/url]

Beast.2017.1080p.BluRay.X264-AMIABLE

http://www.imdb.com/title/tt5628302/

[Video Bitrate]:.............: 10.3mb/s
[Duration]:.............: 1 h 46 min
[Video Codec]:.............: AVC
[Resolution]:.............: 1920x808 px
[Aspect Ratio]:.............: 2.40:1
[Audio Codec]:.............: DTS
[Audio Bitrate]:.............: 1509kb/s
[Audio Channels]:.............: 5.1ch
[Audio Language]:.............: English

Genre .......................:

[color=green][b]#EtHD -> To avoid fakes, ALWAYS check that the torrent was added by EtHD [/b][/color]


[color=green][b]To keep us going Support us by donating Bitcoin: 3PaWcF82GoygLH9z4d7AocH6zcF6m15Wdv[/b][/color]

[b]Screens...[/b]

[url]https://extraimage.net/image/sxrz[/url]
[url]https://extraimage.net/image/sxr0[/url]
[url]https://extraimage.net/image/sxrJ[/url]
[url]https://extraimage.net/image/sxrK[/url]
[url]https://extraimage.net/image/sxrZ[/url]
[url]https://extraimage.net/image/sxrY[/url]
]]>
Beast.2018.BRRip.XviD.AC3-EVO[EtMovies] http://glodls.to/torrent.php?id=3602507 http://glodls.to/torrent.php?id=3602507 Sat, 18 Aug 2018 22:23:30 +0100 Movies EtMovies - Et High-Definition

-----------------------------------------------------

Beast.2018.BRRip.XviD.AC3-EVO

http://www.imdb.com/title//

[Video Bitrate]:.............: 1859kb/s
[Duration]:.............: 1 h 46 min
[Video Codec]:.............: MPEG-4 VISUAL
[Resolution]:.............: 720x304 px
[Aspect Ratio]:.............: 2.35:1
[Audio Codec]:.............: AC-3
[Audio Bitrate]:.............: 448kb/s
[Audio Channels]:.............: 5.1ch
[Audio Language]:.............:

Genre .......................:

[color=green][b]#EtMovies -> To avoid fakes, ALWAYS check that the torrent was added by EtMovies [/b][/color]


[url]https://www.ettv.tv/home/[/url]

[color=green][b]To keep us going Support us by donating Bitcoin: 3PaWcF82GoygLH9z4d7AocH6zcF6m15Wdv[/b][/color]

[b]Screens...[/b]

[url]https://extraimage.net/image/sxrm[/url]
[url]https://extraimage.net/image/sxri[/url]
[url]https://extraimage.net/image/sxrl[/url]
[url]https://extraimage.net/image/sxrI[/url]
[url]https://extraimage.net/image/sxrd[/url]
[url]https://extraimage.net/image/sxrM[/url]
]]>
Beast.2018.BRRip.XviD.AC3-EVO[TGx] http://glodls.to/torrent.php?id=3602506 http://glodls.to/torrent.php?id=3602506 Sat, 18 Aug 2018 22:22:04 +0100 Movies [b]Beast.2018.BRRip.XviD.AC3-EVO[TGx][/b]
IMDB - [url]https://www.imdb.com/title/tt5628302[/url]

Upload provided by TorrentGalaxy
Visit us @ [url]https://torrentgalaxy.org[/url]

-----------------------------------------------------------------------------------

[b]GENERAL INFO[/b]
[b]Genre[/b]: Drama, Thriller
[b]Director[/b]: Michael Pearce
[b]Stars[/b]: Jessie Buckley, Johnny Flynn, Geraldine James, Charley Palmer Rothwell, Hattie Gotobed
[b]Plot[/b]: A troubled woman living in an isolated community finds herself pulled between the control of her oppressive family and the allure of a secretive outsider suspected of a series of brutal murders.

-----------------------------------------------------------------------------------

[b]COVER[/b]
[url=https://imgmak.com/image/gkO][img]https://imgmak.com/images/2018/08/19/tmpposter21567.jpg[/img][/url]

-----------------------------------------------------------------------------------

[b]MEDIAINFO[/b]
Container = AVI (avi)
Duration = 01:46:26.708
Filesize = 1 GiB
ViDEO
Codec info = MPEG-4 Visual Advanced Simple@L5 | XVID
Resolution = 720x304
Display AR = 2.368 | 2.35:1
Bitrate = 1 402 kb/s
Framerate = 24.000
Color space = YUV
Chroma subsampling = 4:2:0
Encoder = XviD0067
AUDiO
Codec info = AC-3 | 2000
Channels = 6
Bitrate = CBR 448 kb/s
Samplerate = 48.0 kHz
Language = English

-----------------------------------------------------------------------------------

[b]SCREENSHOTS[/b]
(Click to enlarge)
[url=https://imgmak.com/image/gkP][img]https://imgmak.com/images/2018/08/19/HappyRoboto6819.th.jpg[/img][/url] [url=https://imgmak.com/image/gkY][img]https://imgmak.com/images/2018/08/19/HappyRoboto32729.th.jpg[/img][/url] [url=https://imgmak.com/image/gk0][img]https://imgmak.com/images/2018/08/19/HappyRoboto1090.th.jpg[/img][/url] [url=https://imgmak.com/image/gkA][img]https://imgmak.com/images/2018/08/19/HappyRoboto24527.th.jpg[/img][/url] [url=https://imgmak.com/image/gkD][img]https://imgmak.com/images/2018/08/19/HappyRoboto545.th.jpg[/img][/url] [url=https://imgmak.com/image/gkf][img]https://imgmak.com/images/2018/08/19/HappyRoboto32056.th.jpg[/img][/url]
[/center] ]]>
Beast.2017.BDRip.X264-AMIABLE[TGx] http://glodls.to/torrent.php?id=3602505 http://glodls.to/torrent.php?id=3602505 Sat, 18 Aug 2018 22:20:34 +0100 Movies [b]Beast.2017.BDRip.X264-AMIABLE[TGx][/b]
IMDB - [url]https://www.imdb.com/title/tt2771200[/url]

Upload provided by TorrentGalaxy
Visit us @ [url]https://torrentgalaxy.org[/url]

-----------------------------------------------------------------------------------

[b]GENERAL INFO[/b]
[b]Genre[/b]: Family, Fantasy, Romance
[b]Director[/b]: Bill Condon
[b]Stars[/b]: Emma Watson, Dan Stevens, Luke Evans, Kevin Kline, Josh Gad
[b]Plot[/b]: A live-action adaptation of Disney's version of the classic tale of a cursed prince and a beautiful young woman who helps him break the spell.

-----------------------------------------------------------------------------------

[b]COVER[/b]
[url=https://imgmak.com/image/gkG][img]https://imgmak.com/images/2018/08/19/tmpposter23542.jpg[/img][/url]

-----------------------------------------------------------------------------------

[b]MEDIAINFO[/b]
Container = Matroska (mkv)
Duration = 01:46:26.718
Filesize = 490 MiB
ViDEO
Codec info = AVC High@L3.1 | V_MPEG4/ISO/AVC
Resolution = 720x302
Display AR = 2.384 | 2.40:1
Bitrate =
Framerate = CFR 24.000
Color space = YUV
Chroma subsampling = 4:2:0
Encoder = x264 - core 157 r2932 303c484
AUDiO
Codec info = AAC LC | A_AAC
Channels = 2
Bitrate =
Samplerate = 48.0 kHz
Language = English

-----------------------------------------------------------------------------------

[b]SCREENSHOTS[/b]
(Click to enlarge)
[url=https://imgmak.com/image/gkH][img]https://imgmak.com/images/2018/08/19/HappyRoboto22511.th.jpg[/img][/url] [url=https://imgmak.com/image/gkv][img]https://imgmak.com/images/2018/08/19/HappyRoboto26918.th.jpg[/img][/url] [url=https://imgmak.com/image/gky][img]https://imgmak.com/images/2018/08/19/HappyRoboto16933.th.jpg[/img][/url] [url=https://imgmak.com/image/gk6][img]https://imgmak.com/images/2018/08/19/HappyRoboto26381.th.jpg[/img][/url] [url=https://imgmak.com/image/gk9][img]https://imgmak.com/images/2018/08/19/HappyRoboto9187.th.jpg[/img][/url] [url=https://imgmak.com/image/gkM][img]https://imgmak.com/images/2018/08/19/HappyRoboto22395.th.jpg[/img][/url]
[/center] ]]>
Down a Dark Hall 2018 1080p WEB-DL DD 5 1 x264 [MW] http://glodls.to/torrent.php?id=3602504 http://glodls.to/torrent.php?id=3602504 Sat, 18 Aug 2018 22:20:26 +0100 Movies [url=https://pichub.site/image/SYWRj][img]https://pichub.site/images/2018/08/18/down.md.jpg[/img][/url]

[b]
General
Format : Matroska
Format version : Version 4 / Version 2
File size : 2.09 GiB
Duration : 1 h 36 min
Overall bit rate : 3 102 kb/s

Video
ID : 1
Format : AVC
Format/Info : Advanced Video Codec
Format profile : High@L4.1
Format settings : CABAC / 4 Ref Frames
Format settings, CABAC : Yes
Format settings, RefFrames : 4 frames
Codec ID : V_MPEG4/ISO/AVC
Duration : 1 h 36 min
Bit rate : 2 800 kb/s
Width : 1 538 pixels
Height : 788 pixels
Display aspect ratio : 1.952
Frame rate mode : Constant
Frame rate : 23.976 (24000/1001) FPS
Color space : YUV
Chroma subsampling : 4:2:0
Bit depth : 8 bits
Scan type : Progressive
Bits/(Pixel*Frame) : 0.096
Stream size : 1.83 GiB (88%)
Writing library : x264 core 155 r2901 7d0ff22
Default : Yes
Forced : No

Audio
ID : 2
Format : AC-3
Format/Info : Audio Coding 3
Codec ID : A_AC3
Duration : 1 h 36 min
Bit rate mode : Constant
Bit rate : 384 kb/s
Channel(s) : 6 channels
Channel positions : Front: L C R, Side: L R, LFE
Sampling rate : 48.0 kHz
Frame rate : 31.250 FPS (1536 SPF)
Bit depth : 16 bits
Compression mode : Lossy
Stream size : 265 MiB (12%)
Language : English
Service kind : Complete Main
Default : Yes
Forced : No

Text
ID : 3
Format : UTF-8
Codec ID : S_TEXT/UTF8
Codec ID/Info : UTF-8 Plain Text
Duration : 1 h 27 min
Bit rate : 44 b/s
Count of elements : 954
Stream size : 28.6 KiB (0%)
Language : English
Default : Yes
Forced : No

Menu
00:00:00.000 : en:1
00:07:47.968 : en:2
00:17:55.992 : en:3
00:27:55.007 : en:4
00:36:30.980 : en:5
00:46:35.960 : en:6
00:55:53.976 : en:7
01:04:01.004 : en:8
01:16:00.973 : en:9
01:29:19.980 : en:10
[/b]

[url=https://pichub.site/image/SYbKr]https://pichub.site/image/SYbKr[/url]
[url=https://pichub.site/image/SYqJQ]https://pichub.site/image/SYqJQ[/url]
[url=https://pichub.site/image/SYeXk]https://pichub.site/image/SYeXk[/url]
[url=https://pichub.site/image/Sa4iv]https://pichub.site/image/Sa4iv[/url]
[url=https://pichub.site/image/Safpd]https://pichub.site/image/Safpd[/url]
[url=https://pichub.site/image/SaJb9]https://pichub.site/image/SaJb9[/url]
[/center]
]]>
AussieFellatioQueens 18 08 18 Silvia Rubi And Marina Lee International Girl On Girl 480p MP4-XXX http://glodls.to/torrent.php?id=3602503 http://glodls.to/torrent.php?id=3602503 Sat, 18 Aug 2018 22:19:18 +0100 Adult XXX
[b]Screens :[/b]

[url]https://22pixx.xyz/ia-i/5b789b679dca5.jpeg.html[/url]

[url]https://22pixx.xyz/ia-i/5b789b67929ff.jpeg.html[/url]

[url]https://22pixx.xyz/ia-i/5b789b67874bb.jpeg.html[/url]

[url]https://22pixx.xyz/ia-i/5b789b677bf13.jpeg.html[/url]

[url]https://22pixx.xyz/ia-i/5b789b634b8c0.jpeg.html[/url]

File Size : 197 MiB
Duration : 23mn 44s
Video : h264, yuv420p, 854x480p, 1024 Kbps
Audio : aac , 2 ch, stereo , 128 Kbps ]]>
Beast.2017.720p.BluRay.X264-AMIABLE[TGx] http://glodls.to/torrent.php?id=3602502 http://glodls.to/torrent.php?id=3602502 Sat, 18 Aug 2018 22:09:39 +0100 Movies [b]Beast.2017.720p.BluRay.X264-AMIABLE[TGx][/b]
IMDB - [url]https://www.imdb.com/title/tt2771200[/url]

Upload provided by TorrentGalaxy
Visit us @ [url]https://torrentgalaxy.org[/url]

-----------------------------------------------------------------------------------

[b]GENERAL INFO[/b]
[b]Genre[/b]: Family, Fantasy, Romance
[b]Director[/b]: Bill Condon
[b]Stars[/b]: Emma Watson, Dan Stevens, Luke Evans, Kevin Kline, Josh Gad
[b]Plot[/b]: A live-action adaptation of Disney's version of the classic tale of a cursed prince and a beautiful young woman who helps him break the spell.

-----------------------------------------------------------------------------------

[b]COVER[/b]
[url=https://imgmak.com/image/gkk][img]https://imgmak.com/images/2018/08/19/tmpposter28499.jpg[/img][/url]

-----------------------------------------------------------------------------------

[b]MEDIAINFO[/b]
Container = Matroska (mkv)
Duration = 01:46:26.710
Filesize = 4 GiB
ViDEO
Codec info = AVC High@L4.1 | V_MPEG4/ISO/AVC
Resolution = 1280x536
Display AR = 2.388 | 2.40:1
Bitrate = 4 368 kb/s
Framerate = CFR 24.000
Color space = YUV
Chroma subsampling = 4:2:0
Encoder = x264 - core 157 r2932 303c484
AUDiO
Codec info = DTS | A_DTS
Channels = 6
Bitrate = CBR 1 509 kb/s
Samplerate = 48.0 kHz
Language = English

-----------------------------------------------------------------------------------

[b]SCREENSHOTS[/b]
(Click to enlarge)
[url=https://imgmak.com/image/gkm][img]https://imgmak.com/images/2018/08/19/HappyRoboto2967.th.jpg[/img][/url] [url=https://imgmak.com/image/gku][img]https://imgmak.com/images/2018/08/19/HappyRoboto27601.th.jpg[/img][/url] [url=https://imgmak.com/image/gk5][img]https://imgmak.com/images/2018/08/19/HappyRoboto27994.th.jpg[/img][/url] [url=https://imgmak.com/image/gk1][img]https://imgmak.com/images/2018/08/19/HappyRoboto31070.th.jpg[/img][/url] [url=https://imgmak.com/image/gkU][img]https://imgmak.com/images/2018/08/19/HappyRoboto12085.th.jpg[/img][/url] [url=https://imgmak.com/image/gk3][img]https://imgmak.com/images/2018/08/19/HappyRoboto14673.th.jpg[/img][/url]
[/center] ]]>
Beast.2017.720p.BluRay.X264-AMIABLE[EtHD] http://glodls.to/torrent.php?id=3602501 http://glodls.to/torrent.php?id=3602501 Sat, 18 Aug 2018 22:04:27 +0100 Movies EtHD - Et High-Definition

-----------------------------------------------------
[url]https://www.ettv.tv/home/[/url]

Beast.2017.720p.BluRay.X264-AMIABLE

http://www.imdb.com/title/tt5628302/

[Video Bitrate]:.............: 5876 kbps
[Duration]:.............: 1h 46mn
[Video Codec]:.............: AVC
[Resolution]:.............: 1280x536 px
[Aspect Ratio]:.............: 2.40:1
[Audio Codec]:.............: DTS
[Audio Bitrate]:.............: 1509 kbps
[Audio Channels]:.............: 5.1ch
[Audio Language]:.............: English

Genre .......................:

[color=green][b]#EtHD -> To avoid fakes, ALWAYS check that the torrent was added by EtHD [/b][/color]


[color=green][b]To keep us going Support us by donating Bitcoin: 3PaWcF82GoygLH9z4d7AocH6zcF6m15Wdv[/b][/color]

[b]Screens...[/b]

[url]https://extraimage.net/image/sxrs[/url]
[url]https://extraimage.net/image/sxr7[/url]
[url]https://extraimage.net/image/sxrc[/url]
[url]https://extraimage.net/image/sxr1[/url]
[url]https://extraimage.net/image/sxrE[/url]
[url]https://extraimage.net/image/sxrL[/url]
]]>
Beast.2017.BDRip.X264-AMIABLE[EtMovies] http://glodls.to/torrent.php?id=3602500 http://glodls.to/torrent.php?id=3602500 Sat, 18 Aug 2018 22:03:30 +0100 Movies EtMovies - Et High-Definition

-----------------------------------------------------

Beast.2017.BDRip.X264-AMIABLE

http://www.imdb.com/title//

[Video Bitrate]:.............: 644kb/s
[Duration]:.............: 1 h 46 min
[Video Codec]:.............: AVC
[Resolution]:.............: 720x302 px
[Aspect Ratio]:.............: 2.40:1
[Audio Codec]:.............: AAC
[Audio Bitrate]:.............:
[Audio Channels]:.............: 2.0ch
[Audio Language]:.............: English

Genre .......................:

[color=green][b]#EtMovies -> To avoid fakes, ALWAYS check that the torrent was added by EtMovies [/b][/color]


[url]https://www.ettv.tv/home/[/url]

[color=green][b]To keep us going Support us by donating Bitcoin: 3PaWcF82GoygLH9z4d7AocH6zcF6m15Wdv[/b][/color]

[b]Screens...[/b]

[url]https://extraimage.net/image/sxpW[/url]
[url]https://extraimage.net/image/sxpf[/url]
[url]https://extraimage.net/image/sxr8[/url]
[url]https://extraimage.net/image/sxra[/url]
[url]https://extraimage.net/image/sxrw[/url]
[url]https://extraimage.net/image/sxrn[/url]
]]>
AuntJudys.18.08.17.Diana.Seduces.A.Young.Man.XXX.1080p.MP4-KTR[N1C] http://glodls.to/torrent.php?id=3602432 http://glodls.to/torrent.php?id=3602432 Sat, 18 Aug 2018 21:50:13 +0100 Adult XXX AuntJudys.18.08.17.Diana.Seduces.A.Young.Man.XXX.1080p.MP4-KTR


[Format]: MPEG-4
[Duration]: 18mn 38s
[Resolution]: 1 920 x 1 080 pixels
[Display aspect ratio]: 16:9
[Frame rate mode]: Constant
[Frame rate]: 30.000 fps


[color=green][b]#N1C -> To avoid fakes, ALWAYS check that the torrent was added by NO1CARES[/b][/color]






[b]Screens...[/b]
[url]http://HotImage.uk/img-5b789418b5e3c.html[/url]
[url]http://HotImage.uk/img-5b789418eecd8.html[/url]
[url]http://HotImage.uk/img-5b7894190a09a.html[/url]
[url]http://HotImage.uk/img-5b78941916910.html[/url] ]]>
PornMegaLoad.18.08.18.Alice.Wayne.Alice.In.Wonderland.XXX.1080p.MP4-KTR[N1C] http://glodls.to/torrent.php?id=3602431 http://glodls.to/torrent.php?id=3602431 Sat, 18 Aug 2018 21:49:40 +0100 Adult XXX PornMegaLoad.18.08.18.Alice.Wayne.Alice.In.Wonderland.XXX.1080p.MP4-KTR


[Format]: MPEG-4
[Duration]: 17mn 45s
[Resolution]: 1 920 x 1 080 pixels
[Display aspect ratio]: 16:9
[Frame rate mode]: Constant
[Frame rate]: 29.970 fps


[color=green][b]#N1C -> To avoid fakes, ALWAYS check that the torrent was added by NO1CARES[/b][/color]






[b]Screens...[/b]
[url]http://HotImage.uk/img-5b7893e7a81cd.html[/url]
[url]http://HotImage.uk/img-5b7893e7bfeec.html[/url]
[url]http://HotImage.uk/img-5b7893e7c9ffe.html[/url]
[url]http://HotImage.uk/img-5b7893e7d3c27.html[/url] ]]>
To All the Boys Ive Loved Before 2018 1080p WEB-DL DD 5 1 x264 [MW] http://glodls.to/torrent.php?id=3602428 http://glodls.to/torrent.php?id=3602428 Sat, 18 Aug 2018 21:48:13 +0100 Movies [url=https://pichub.site/image/SY3iI][img]https://pichub.site/images/2018/08/18/1dbedbe218da92ead46654d3514a62f4.md.jpg[/img][/url]

[b]
General
Unique ID :
Format : Matroska
Format version : Version 4 / Version 2
File size : 1.65 GiB
Duration : 1 h 39 min
Overall bit rate : 2 358 kb/s

Video
ID : 1
Format : AVC
Format/Info : Advanced Video Codec
Format profile : High@L4.1
Format settings : CABAC / 4 Ref Frames
Format settings, CABAC : Yes
Format settings, RefFrames : 4 frames
Codec ID : V_MPEG4/ISO/AVC
Duration : 1 h 39 min
Bit rate : 2 000 kb/s
Width : 1 920 pixels
Height : 804 pixels
Display aspect ratio : 2.40:1
Frame rate mode : Constant
Frame rate : 23.976 (24000/1001) FPS
Color space : YUV
Chroma subsampling : 4:2:0
Bit depth : 8 bits
Scan type : Progressive
Bits/(Pixel*Frame) : 0.054
Stream size : 1.38 GiB (84%)
Writing library : x264 core 155 r2901 7d0ff22
Default : Yes
Forced : No

Audio
ID : 2
Format : AC-3
Format/Info : Audio Coding 3
Codec ID : A_AC3
Duration : 1 h 39 min
Bit rate mode : Constant
Bit rate : 384 kb/s
Channel(s) : 6 channels
Channel positions : Front: L C R, Side: L R, LFE
Sampling rate : 48.0 kHz
Frame rate : 31.250 FPS (1536 SPF)
Bit depth : 16 bits
Compression mode : Lossy
Stream size : 274 MiB (16%)
Language : English
Service kind : Complete Main
Default : Yes
Forced : No

Text
ID : 3
Format : UTF-8
Codec ID : S_TEXT/UTF8
Codec ID/Info : UTF-8 Plain Text
Duration : 1 h 38 min
Bit rate : 79 b/s
Count of elements : 1513
Stream size : 57.2 KiB (0%)
Language : English
Default : Yes
Forced : No
[/b]

[url=https://pichub.site/image/SYsJg]https://pichub.site/image/SYsJg[/url]
[url=https://pichub.site/image/SYZoX]https://pichub.site/image/SYZoX[/url]
[url=https://pichub.site/image/SY1b8]https://pichub.site/image/SY1b8[/url]
[url=https://pichub.site/image/SYHcJ]https://pichub.site/image/SYHcJ[/url]
[url=https://pichub.site/image/SYTU5]https://pichub.site/image/SYTU5[/url]
[url=https://pichub.site/image/SYF9h]https://pichub.site/image/SYF9h[/url]
[/center]
]]>
ElegantAngel.Gape.XXX.1080p.MP4-KTR[N1C] http://glodls.to/torrent.php?id=3602427 http://glodls.to/torrent.php?id=3602427 Sat, 18 Aug 2018 21:47:58 +0100 Adult XXX ElegantAngel.Gape.XXX.1080p.MP4-KTR


[Format]: MPEG-4
[Duration]: 2h 54mn
[Resolution]: 1 920 x 1 080 pixels
[Display aspect ratio]: 16:9
[Frame rate mode]: Constant
[Frame rate]: 30.000 fps


[color=green][b]#N1C -> To avoid fakes, ALWAYS check that the torrent was added by NO1CARES[/b][/color]






[b]Screens...[/b]
[url]http://HotImage.uk/img-5b7893ca052b7.html[/url]
[url]http://HotImage.uk/img-5b7893ca16dc9.html[/url]
[url]http://HotImage.uk/img-5b7893ca25b25.html[/url]
[url]http://HotImage.uk/img-5b7893ca310fb.html[/url] ]]>
AussieFellatioQueens 18 08 11 Aeryn Walker Wifey Cum Denial 480p MP4-XXX http://glodls.to/torrent.php?id=3602420 http://glodls.to/torrent.php?id=3602420 Sat, 18 Aug 2018 21:44:28 +0100 Adult XXX
[b]Screens :[/b]

[url]https://22pixx.xyz/ia-i/5b78933d11ee4.jpeg.html[/url]

[url]https://22pixx.xyz/ia-i/5b78933d06aec.jpeg.html[/url]

[url]https://22pixx.xyz/ia-i/5b78933cef802.jpeg.html[/url]

[url]https://22pixx.xyz/ia-i/5b78933ce442c.jpeg.html[/url]

[url]https://22pixx.xyz/ia-i/5b78933a7c4dc.jpeg.html[/url]

File Size : 128 MiB
Duration : 15mn 17s
Video : h264, yuv420p, 854x480p, 1024 Kbps
Audio : aac , 2 ch, stereo , 128 Kbps ]]>
AuntJudys.18.08.16.Helen.Volga.Masturbates.While.On.Vacation.XXX.1080p.MP4-KTR[N1C] http://glodls.to/torrent.php?id=3602419 http://glodls.to/torrent.php?id=3602419 Sat, 18 Aug 2018 21:44:28 +0100 Adult XXX AuntJudys.18.08.16.Helen.Volga.Masturbates.While.On.Vacation.XXX.1080p.MP4-KTR


[Format]: MPEG-4
[Duration]: 16mn 10s
[Resolution]: 1 920 x 1 080 pixels
[Display aspect ratio]: 16:9
[Frame rate mode]: Constant
[Frame rate]: 30.000 fps


[color=green][b]#N1C -> To avoid fakes, ALWAYS check that the torrent was added by NO1CARES[/b][/color]






[b]Screens...[/b]
[url]http://HotImage.uk/img-5b7892f675436.html[/url]
[url]http://HotImage.uk/img-5b7892f689809.html[/url]
[url]http://HotImage.uk/img-5b7892f697c62.html[/url]
[url]http://HotImage.uk/img-5b7892f6a3c77.html[/url] ]]>
ElegantAngel.Anal.Mommas.XXX.1080p.MP4-KTR[N1C] http://glodls.to/torrent.php?id=3602415 http://glodls.to/torrent.php?id=3602415 Sat, 18 Aug 2018 21:41:32 +0100 Adult XXX ElegantAngel.Anal.Mommas.XXX.1080p.MP4-KTR


[Format]: MPEG-4
[Duration]: 2h 14mn
[Resolution]: 1 920 x 1 080 pixels
[Display aspect ratio]: 16:9
[Frame rate mode]: Constant
[Frame rate]: 30.000 fps


[color=green][b]#N1C -> To avoid fakes, ALWAYS check that the torrent was added by NO1CARES[/b][/color]






[b]Screens...[/b]
[url]http://HotImage.uk/img-5b78922be7280.html[/url]
[url]http://HotImage.uk/img-5b78922c29712.html[/url]
[url]http://HotImage.uk/img-5b78922c33ee2.html[/url]
[url]http://HotImage.uk/img-5b78922c3e6e2.html[/url] ]]>
Harry.and.Meghan.A.Modern.Royal.Romance.2018.HDRip.x264-PHOENiX[TGx] http://glodls.to/torrent.php?id=3602414 http://glodls.to/torrent.php?id=3602414 Sat, 18 Aug 2018 21:40:44 +0100 Movies [b]Harry.and.Meghan.A.Modern.Royal.Romance.2018.HDRip.x264-PHOENiX[TGx][/b]
IMDB - [url]https://www.imdb.com/title/tt8103746[/url]

Upload provided by TorrentGalaxy
Visit us @ [url]https://torrentgalaxy.org[/url]

-----------------------------------------------------------------------------------

[b]GENERAL INFO[/b]
[b]Genre[/b]:
[b]Director[/b]: Tara Pirnia
[b]Stars[/b]: Prince Harry, Meghan Markle, Victoria Arbiter, Priyanka Chopra, Andrew Morton
[b]Plot[/b]: Meet the new royal couple and their entourage as we follow their story from the beginning of their romance through their engagement announcement and discover how an American actress will soon be a member of the British Royal family.

-----------------------------------------------------------------------------------

[b]COVER[/b]
[url=https://imgmak.com/image/gkp][img]https://imgmak.com/images/2018/08/18/tmpposter31536.jpg[/img][/url]

-----------------------------------------------------------------------------------

[b]MEDIAINFO[/b]
Container = Matroska (mkv)
Duration = 01:03:18.325
Filesize = 456 MiB
ViDEO
Codec info = AVC High@L3 | V_MPEG4/ISO/AVC
Resolution = 720x400
Display AR = 1.778 | 16:9
Bitrate =
Framerate = VFR
Color space = YUV
Chroma subsampling = 4:2:0
Encoder = x264 - core 148 r2748 97eaef2
AUDiO
Codec info = AAC LC | A_AAC
Channels = 2
Bitrate =
Samplerate = 48.0 kHz
Language = English

-----------------------------------------------------------------------------------

[b]SCREENSHOTS[/b]
(Click to enlarge)
[url=https://imgmak.com/image/gkR][img]https://imgmak.com/images/2018/08/18/HappyRoboto19501.th.jpg[/img][/url] [url=https://imgmak.com/image/gkb][img]https://imgmak.com/images/2018/08/18/HappyRoboto11691.th.jpg[/img][/url] [url=https://imgmak.com/image/5Tp][img]https://imgmak.com/images/2018/04/14/dud.th.jpg[/img][/url] [url=https://imgmak.com/image/gkx][img]https://imgmak.com/images/2018/08/18/HappyRoboto32055.th.jpg[/img][/url] [url=https://imgmak.com/image/gkz][img]https://imgmak.com/images/2018/08/18/HappyRoboto24770.th.jpg[/img][/url] [url=https://imgmak.com/image/gk7][img]https://imgmak.com/images/2018/08/18/HappyRoboto18525.th.jpg[/img][/url]
[/center] ]]>
BackstageBangers 18 08 17 Amateur Blonde Eagerly Sucks Cock 639 480p MP4-XXX http://glodls.to/torrent.php?id=3602413 http://glodls.to/torrent.php?id=3602413 Sat, 18 Aug 2018 21:37:23 +0100 Adult XXX
[b]Screens :[/b]

[url]https://22pixx.xyz/ia-i/5b789194ad53f.jpeg.html[/url]

[url]https://22pixx.xyz/ia-i/5b789194a1f4b.jpeg.html[/url]

[url]https://22pixx.xyz/ia-i/5b7891949699d.jpeg.html[/url]

[url]https://22pixx.xyz/ia-i/5b7891948b35a.jpeg.html[/url]

[url]https://22pixx.xyz/ia-i/5b78918fececa.jpeg.html[/url]

File Size : 83.9 MiB
Duration : 10mn 8s
Video : h264, yuv420p, 854x480p, 1024 Kbps
Audio : aac , 2 ch, stereo , 128 Kbps ]]>
Running for Grace 2018 1080p WEB-DL DD 5 1 x264 [MW] http://glodls.to/torrent.php?id=3602412 http://glodls.to/torrent.php?id=3602412 Sat, 18 Aug 2018 21:31:24 +0100 Movies [url=https://pichub.site/image/SYpV0][img]https://pichub.site/images/2018/08/18/run.md.jpg[/img][/url]

[b]
General
Format : Matroska
Format version : Version 4 / Version 2
File size : 1.97 GiB
Duration : 1 h 50 min
Overall bit rate : 2 554 kb/s

Video
ID : 1
Format : AVC
Format/Info : Advanced Video Codec
Format profile : High@L4.1
Format settings : CABAC / 4 Ref Frames
Format settings, CABAC : Yes
Format settings, RefFrames : 4 frames
Codec ID : V_MPEG4/ISO/AVC
Duration : 1 h 50 min
Bit rate : 2 200 kb/s
Width : 1 908 pixels
Height : 792 pixels
Display aspect ratio : 2.40:1
Frame rate mode : Constant
Frame rate : 23.976 (24000/1001) FPS
Color space : YUV
Chroma subsampling : 4:2:0
Bit depth : 8 bits
Scan type : Progressive
Bits/(Pixel*Frame) : 0.061
Stream size : 1.67 GiB (85%)
Writing library : x264 core 155 r2901 7d0ff22
Default : Yes
Forced : No

Audio
ID : 2
Format : AC-3
Format/Info : Audio Coding 3
Codec ID : A_AC3
Duration : 1 h 50 min
Bit rate mode : Constant
Bit rate : 384 kb/s
Channel(s) : 6 channels
Channel positions : Front: L C R, Side: L R, LFE
Sampling rate : 48.0 kHz
Frame rate : 31.250 FPS (1536 SPF)
Bit depth : 16 bits
Compression mode : Lossy
Stream size : 303 MiB (15%)
Language : English
Service kind : Complete Main
Default : Yes
Forced : No

Text
ID : 3
Format : UTF-8
Codec ID : S_TEXT/UTF8
Codec ID/Info : UTF-8 Plain Text
Duration : 1 h 44 min
Bit rate : 41 b/s
Count of elements : 1157
Stream size : 32.1 KiB (0%)
Language : English
Default : Yes
Forced : No

Menu
00:00:00.000 : en:1
00:05:46.972 : en:2
00:13:40.028 : en:3
00:24:55.035 : en:4
00:34:31.027 : en:5
00:43:46.999 : en:6
00:52:04.038 : en:7
01:01:39.988 : en:8
01:12:53.995 : en:9
01:32:35.967 : en:10
01:46:48.027 : en:11
[/b]

[url=https://pichub.site/image/SYrWb]https://pichub.site/image/SYrWb[/url]
[url=https://pichub.site/image/SY51T]https://pichub.site/image/SY51T[/url]
[url=https://pichub.site/image/SY2UV]https://pichub.site/image/SY2UV[/url]
[url=https://pichub.site/image/SYPKD]https://pichub.site/image/SYPKD[/url]
[url=https://pichub.site/image/SY6RN]https://pichub.site/image/SY6RN[/url]
[url=https://pichub.site/image/SYXPZ]https://pichub.site/image/SYXPZ[/url]
[/center]
]]>
Casualty.S33E02.HDTV.x264-MTB[TGx] http://glodls.to/torrent.php?id=3602411 http://glodls.to/torrent.php?id=3602411 Sat, 18 Aug 2018 21:26:43 +0100 TV
[img]https://imgmak.com/images/2018/08/18/tmpbanner27175.jpg[/img]

[b]Casualty.S33E02.HDTV.x264-MTB[TGx][/b]
[url]https://www.imdb.com/title/tt0096555[/url]


Upload provided by TorrentGalaxy
Visit us @ [url]https://torrentgalaxy.org[/url]


[b]SERIES INFO[/b]
[b]Genre[/b]: Drama
[b]Stars[/b]: Orlando Seale, Donna Alexander, Shameer Madarbakus, Matthew Wait, Ian Kelsey, Robson Green, Kwame Kwei-Armah, Elyes Gabel, Robert Gwilym, Andy Robb
[b]Series Plot[/b]: Casualty is a weekly television show broadcast on BBC One, and the longest running emergency medical drama television series in the world. Created by Jeremy Brock and Paul Unwin, it was first broadcast on 6 September 1986 and transmitted in the UK on BBC One. The producer was Geraint Morris. The programme is based around the fictional Holby City Hospital and focuses on the staff and patients of the hospital's Accident and Emergency Department.

-----------------------------------------------------------------------------------

[b]EPISODE INFO[/b]
[b]Title[/b]: Episode 2
[b]Airdate[/b]: 2018-08-18
[b]Episode plot[/b]: Ciara comes back into Dylan's life, while the fallout from the crash affects the whole department.

-----------------------------------------------------------------------------------

[b]MEDIAINFO[/b]
Container = Matroska (mkv)
Duration = 00:48:40.768
Filesize = 280 MiB
--ViDEO
Codec info = AVC High@L3.1 | V_MPEG4/ISO/AVC
Resolution = 720x404
Display AR = 1.782 | 16:9
Bitrate =
Framerate = CFR 25.000
Color space = YUV
Chroma subsampling = 4:2:0
Encoder = x264 - core 155 r2901 7d0ff22
--AUDiO
Codec info = AAC LC | A_AAC
Channels = 2
Bitrate =
Samplerate = 48.0 kHz
Language = English

-----------------------------------------------------------------------------------

[b]SCREENSHOTS[/b]
(Click to enlarge)
[url=https://imgmak.com/image/g7L][img]https://imgmak.com/images/2018/08/18/HappyRoboto15111.th.jpg[/img][/url] [url=https://imgmak.com/image/g7X][img]https://imgmak.com/images/2018/08/18/HappyRoboto8287.th.jpg[/img][/url] [url=https://imgmak.com/image/gkC][img]https://imgmak.com/images/2018/08/18/HappyRoboto5294.th.jpg[/img][/url] [url=https://imgmak.com/image/gkK][img]https://imgmak.com/images/2018/08/18/HappyRoboto19439.th.jpg[/img][/url] [url=https://imgmak.com/image/gkT][img]https://imgmak.com/images/2018/08/18/HappyRoboto21659.th.jpg[/img][/url] [url=https://imgmak.com/image/gka][img]https://imgmak.com/images/2018/08/18/HappyRoboto8633.th.jpg[/img][/url]
[/center] ]]>
Casualty.S33E02.HDTV.x264-MTB[ettv] http://glodls.to/torrent.php?id=3602410 http://glodls.to/torrent.php?id=3602410 Sat, 18 Aug 2018 21:25:45 +0100 TV Et TV Shows


[url]https://ettv.online/home/[/url]

Casualty.S33E02.HDTV.x264-MTB


[Format]: Matroska
[Duration]: 48mn 40s
[Resolution]: 720 x 404 pixels
[Display aspect ratio]: 16:9
[Frame rate mode]: Constant
[Frame rate]: 25.000 fps


[color=green][b]#ettv -> To avoid fakes, ALWAYS check that the torrent was added by ettv[/b][/color]




[color=green][b]To keep us going Support us by donating Bitcoin: 3PaWcF82GoygLH9z4d7AocH6zcF6m15Wdv[/b][/color]

[b]Screens...[/b]

[url]https://extraimage.net/image/sxpZ[/url]
[url][/url]
[url][/url]
[url][/url]
[url][/url]
[url][/url]
]]>
Various Artists - New Releases Week 33 (2018) [Mp3 320Kbps Songs] http://glodls.to/torrent.php?id=3602405 http://glodls.to/torrent.php?id=3602405 Sat, 18 Aug 2018 21:22:14 +0100 Music
[b]Various Artists - New Releases of the 33rd Week of 2018 [Mp3 320Kbps Songs] [/b]

[b]Info:[/b]

[b]Artist: [/b]Various
[b]Language: [/b]English & Latin
[b]Release Time: [/b]Week 33 of 2018
[b]Total Tracks: [/b]150
[b]Total Duration: [/b]00:08:38:30
[b]Quality: [/b]Mp3 320 Kbps
[b]Total Size: [/b]1.23 GB

[b]Tracklist:[/b]

01. Nicki Minaj - Regular Degular
02. Ariana Grande - Better Off
03. Tory Lanez, Bryson Tiller - Keep In Touch
04. Calvin Harris, Sam Smith, Jessie Reyez - Promises
05. Janet Jackson, Daddy Yankee - Made For Now
06. Camila Cabello, Swae Lee - Real Friends
07. DP Beats - All I Do Is Splash (feat. Wiz Khalifa & Sosamann)
08. Sammy Adams - Action
09. Allie X - Science
10. Honey Lung - Sophomore
11. Roosevelt, Washed Out - Forgive
12. The Brother Brothers - Frankie
13. Somni - Silver
14. Young Thug - Chains Choking Me (feat. Gunna)
15. Paul McCartney - Fuh You
16. Young Thug - Expensive (feat. HiDoraah & Dolly)
17. Darth Nader - Wide Awake
18. DVBBS, Blackbear - IDWK (Yellow Claw Remix)
19. SG Lewis, Aluna Francis, AlunaGeorge - Hurting
20. Ariana Grande - Goodnight N Go
21. Ariana Grande, Pharrell Williams - sweetener
22. Huminal - Altered Ego
23. Balkan Bump, Kelly Finnigan - Give Me Something to Funk
24. Young Thug - Scoliosis (feat. Gunna & Duke)
25. UZZI - Radioactive
26. Flava, Stevenson - Summer Love
27. Jess Glynne - All I Am
28. Cloud Nothings - The Echo of the World
29. Andrew Bayer, Alison May - End Of All Things (Edit)
30. Luis Fonsi, Karol G, Andrés Torres, Mauricio Rengifo - Calypso (Remix)
31. 24hrs - Don't Mess (feat. YG)
32. Bad Bunny, Ñejo, Pj Sin Suela, DJ Nelson - Cual es tu plan
33. Aminé - BLACKJACK
34. Charlie Puth - The Way I Am (Taska Black Remix)
35. Cat Power - Woman (feat. Lana Del Rey)
36. Aretha Franklin - Respect (Remastered)
37. Levi Hummon - Change My Life
38. Jillian Jacqueline, Keith Urban - If I Were You
39. V Presha, Casino South - She's a Freak
40. Tysm - Lights On
41. Ina Wroldsen, Alok - Favela (with Alok)
42. R3hab, Fabian Mazur, Lourdiz - Good Intentions
43. Ariana Grande - Successful
44. Marcus Schossow, Kayla Renee - Come Away With Me
45. Baauer, Miquela - Hate Me
46. Lele Pons - Celoso
47. Stefflon Don, Future, Rymez - What You Want
48. Bishop Briggs, John Hill, Rob Cohen - Baby
49. AURORA, Askjell Solstrand, Magnus Skylstad, Roy Kerr, Tim Bran - Forgotten Love
50. Martin Garrix, David Guetta, Khalid - Ocean (David Guetta Remix)
51. The Kooks - Chicken Bone
52. SYML - Girl (Acoustic)
53. Tough Love - Missing Love
54. Justluke, Jay Dunham - Change My Mind
55. Martin Jensen, Olivia Holt - 16 Steps (Club Edit)
56. The Funk Hunters, Kotek - Say Something feat. LIINKS (Kotek Remix)
57. LeyeT - Let Me Know
58. Ludwig Goransson - Ancestral Plane
59. Russ - The Flute Song
60. Cousin Stizz - Did It
61. Sage The Gemini, Yhung T.O. - Hoop Dreams
62. Eliza Shaddad - This is My Cue
63. Ariana Grande - Borderline
64. Leslie Grace, Becky G, CNCO - Díganle - Tainy Remix
65. Reykon, The Rudeboyz - Macarena
66. NIVIRO - I Just Wanna
67. Christine, the Queens - 5 dollars
68. okaywill - The Youth Group
69. Andrew Ripp - God Knows (Must Be Love)
70. Fucked Up - Normal People
71. Robin Schulz - Basejump (Original Mix)
72. Afrojack - Bassride
73. Nicki Minaj - Barbie Tingz
74. The Unlikely Candidates - Best I Ever Had
75. Grazze - Atlantic Solstice (Original Mix)
76. Low Island - Holding It Down (17-18)
77. R3hab, Thrdl!fe, R3HAB, THRDL!FE, Olivia Holt - Wrong Move (Offset Remix)
78. Annie Angel - Nothing And Something Then Nothing Again
79. Fleurie - Constellate
80. Dither - Illusion
81. The Knocks, Method Man - Goodbyes
82. DP Beats - Trippin (feat. Wiz Khalifa & Travis Scott)
83. James Hersey, Dario Lessing - Real For You
84. Novastar - Holly (Radio Edit)
85. Thrice - Only Us
86. Chris Tomlin - Nobody Loves Me Like You
87. Goldwash - Rhythm Is Frozen
88. G-Buck, Keno - Beat It (feat. Keno)
89. Bess Atwell - Swimming Pool (Radio Edit)
90. Sarah Reeves - Always Been You
91. Cat Power, Lana Del Rey - Woman
92. Paty Cantú, Alejandro Sanz - Cuenta Pendiente
93. Uffie - Sideways
94. Death Cab for Cutie - Northern Lights
95. Young Thug & Young Stoner Life Records - Tsunami
96. Alex Kepler, Kastoway - So Scared (Vip Radio Mix)
97. Kid Ink, 24hrs - Cana
98. Marsheaux - Exit (The Wrong Way)
99. Prince - Black Sweat
100. Mitski - Remember My Name
101. Jaguar Jonze - You Got Left Behind
102. Denvre - Day to Day
103. Dram - prototype
104. Madison Mars, Nevve - Like Fire
105. Young Thug - Dirty Shoes (feat. Gunna)
106. Cole Swindell - 20 in a Chevy
107. Eric Church, Jay Joyce, Craig Wright - Heart Like A Wheel
108. Childish Major - Know Nothing
109. Mike Rogers - Get To Me
110. Ava Max - Sweet but Psycho
111. Ariana Grande - Blazed
112. Luke Christopher - HEART$
113. Ariana Grande, Max Martin, Ilya - everytime
114. Tom Speight - Want You
115. London Elektricity, Degs - Had a Little Fight (Fine Arts Sprayout)
116. The 1975, Matthew Healy - TOOTIMETOOTIMETOOTIME
117. Disturbed - Are You Ready
118. Calvin Harris, Sam Smith - Promises
119. Yonaka - Teach Me To Fight
120. Sam Fender, Dean Thompson - Dead Boys
121. Ariana Grande, Ilya, Max Martin - breathin
122. DP Beats - Bankroll (feat. Lil Uzi Vert & Playboi Carti)
123. Marshmello, Bastille, Steve Mac - Happier
124. Lil Silva - Making Sense
125. soul clap, Baby Bam - Run It (feat. Baby Bam)
126. UZZI - Space Academy
127. Phora - Feel
128. Portugal. The Man - Tidal Wave
129. MNEK, Tre Jean-Marie, Sarah Katende, Jessica McKenzie - Crazy World
130. Grace Gracie - Golden Touch (feat. Bre)
131. Ariana Grande - Get Well Soon
132. 6lack - Nonchalant
133. Sidney Samson, G Wise - Soldier
134. Tash Sultana - Free Mind
135. Jonas Blue, Jack - Rise (Retrovision Remix)
136. Madge - In Too Deep
137. Swmrs - Berkeley's On Fire
138. Young Thug - Slimed In (feat. Nechie)
139. Kream - Deep End (Zaxx Remix)
140. M-22, Frank Sanders, Matthew Humphrey, Hayley May - How Does It Feel
141. George Kwali, Gabrielle Aplin - Dream Enough
142. Thutmose, Jay Critch - Rounds
143. Austin French - I Need a Hallelujah
144. Lil Skies - No Rest
145. Migos - Is You Ready
146. COTIS - Ride
147. Boston Manor - Bad Machine
148. Ina Wroldsen, Alok - Favela
149. Hardwell, Maddix - Bella Ciao
150. R3WIRE, Ben Rainey, Jess Kay - All This Love That I'm Giving (Radio Edit)

[img]https://extraimage.net/images/2018/04/28/e2665ae058dcb50c656e64f5ae06715a.gif[/img]
]]>
AbbyWinters.18.08.17.Dasha.D.Solo.XXX.1080p.MP4-KTR[N1C] http://glodls.to/torrent.php?id=3602396 http://glodls.to/torrent.php?id=3602396 Sat, 18 Aug 2018 21:20:22 +0100 Adult XXX AbbyWinters.18.08.17.Dasha.D.Solo.XXX.1080p.MP4-KTR


[Format]: MPEG-4
[Duration]: 29mn 17s
[Resolution]: 1 920 x 1 080 pixels
[Display aspect ratio]: 16:9
[Frame rate mode]: Constant
[Frame rate]: 50.000 fps


[color=green][b]#N1C -> To avoid fakes, ALWAYS check that the torrent was added by NO1CARES[/b][/color]






[b]Screens...[/b]
[url]http://HotImage.uk/img-5b788d53713fb.html[/url]
[url]http://HotImage.uk/img-5b788d5397c43.html[/url]
[url]http://HotImage.uk/img-5b788d53a7be9.html[/url]
[url]http://HotImage.uk/img-5b788d53b4de6.html[/url] ]]>
BackstageBangers.18.08.17.Amateur.Blonde.Eagerly.Sucks.Cock.639.XXX.1080p.MP4-KTR[N1C] http://glodls.to/torrent.php?id=3602386 http://glodls.to/torrent.php?id=3602386 Sat, 18 Aug 2018 21:17:31 +0100 Adult XXX BackstageBangers.18.08.17.Amateur.Blonde.Eagerly.Sucks.Cock.639.XXX.1080p.MP4-KTR


[Format]: MPEG-4
[Duration]: 10mn 8s
[Resolution]: 1 920 x 1 080 pixels
[Display aspect ratio]: 16:9
[Frame rate mode]: Constant
[Frame rate]: 25.000 fps


[color=green][b]#N1C -> To avoid fakes, ALWAYS check that the torrent was added by NO1CARES[/b][/color]






[b]Screens...[/b]
[url]http://HotImage.uk/img-5b788c7be5182.html[/url]
[url]http://HotImage.uk/img-5b788c7c88d98.html[/url]
[url]http://HotImage.uk/img-5b788c7c9d609.html[/url]
[url]http://HotImage.uk/img-5b788c7cac628.html[/url] ]]>
AussieFellatioQueens.18.08.18.Silvia.Rubi.And.Marina.Lee.International.Girl.On.Girl.XXX.1080p.MP4-KTR[N1C] http://glodls.to/torrent.php?id=3602385 http://glodls.to/torrent.php?id=3602385 Sat, 18 Aug 2018 21:17:09 +0100 Adult XXX AussieFellatioQueens.18.08.18.Silvia.Rubi.And.Marina.Lee.International.Girl.On.Girl.XXX.1080p.MP4-KTR


[Format]: MPEG-4
[Duration]: 23mn 44s
[Resolution]: 1 920 x 1 080 pixels
[Display aspect ratio]: 16:9
[Frame rate mode]: Constant
[Frame rate]: 29.970 fps


[color=green][b]#N1C -> To avoid fakes, ALWAYS check that the torrent was added by NO1CARES[/b][/color]






[b]Screens...[/b]
[url]http://HotImage.uk/img-5b788c6f3b306.html[/url]
[url]http://HotImage.uk/img-5b788c6f978dd.html[/url]
[url]http://HotImage.uk/img-5b788c6fa254a.html[/url]
[url]http://HotImage.uk/img-5b788c6facfc4.html[/url] ]]>
AussieFellatioQueens.18.08.11.Aeryn.Walker.Wifey.Cum.Denial.XXX.1080p.MP4-KTR[N1C] http://glodls.to/torrent.php?id=3602384 http://glodls.to/torrent.php?id=3602384 Sat, 18 Aug 2018 21:16:41 +0100 Adult XXX AussieFellatioQueens.18.08.11.Aeryn.Walker.Wifey.Cum.Denial.XXX.1080p.MP4-KTR


[Format]: MPEG-4
[Duration]: 15mn 17s
[Resolution]: 1 920 x 1 080 pixels
[Display aspect ratio]: 16:9
[Frame rate mode]: Constant
[Frame rate]: 29.970 fps


[color=green][b]#N1C -> To avoid fakes, ALWAYS check that the torrent was added by NO1CARES[/b][/color]






[b]Screens...[/b]
[url]http://HotImage.uk/img-5b788c6093a65.html[/url]
[url]http://HotImage.uk/img-5b788c60a9217.html[/url]
[url]http://HotImage.uk/img-5b788c60b7af8.html[/url]
[url]http://HotImage.uk/img-5b788c60c3ecb.html[/url] ]]>
Deadpool 2 (2018) Super Duper Cut UNRATED 720p http://glodls.to/torrent.php?id=3602383 http://glodls.to/torrent.php?id=3602383 Sat, 18 Aug 2018 21:16:17 +0100 Movies
Foul-mouthed mutant mercenary Wade Wilson (AKA. Deadpool), brings together a team of fellow mutant rogues to protect a young boy with supernatural abilities from the brutal, time-traveling cyborg, Cable.
Director: David Leitch
Writers: Rhett Reese, Paul Wernick
Stars: Ryan Reynolds, Josh Brolin, Morena Baccarin ]]>
Michael Connelly-The Concrete Blonde [audio] http://glodls.to/torrent.php?id=3602382 http://glodls.to/torrent.php?id=3602382 Sat, 18 Aug 2018 21:03:38 +0100 Books by Michael Connelly

In this classic from a #1 "New York Times" bestselling author, Detective Harry Bosch thought he'd stopped the serial killer known as the Dollmaker. Now the dead man's widow is suing Harry and the LAPD for shooting the wrong man--an accusation that rings true when a new victim is discovered with the Dollmaker's macabre signature. ]]>
A Snipers War 2018 1080p WEB-Rip x264 ESub [MW] http://glodls.to/torrent.php?id=3602381 http://glodls.to/torrent.php?id=3602381 Sat, 18 Aug 2018 21:02:38 +0100 Movies [url=https://pichub.site/image/SYm1B][img]https://pichub.site/images/2018/08/18/a.md.jpg[/img][/url]

[b]
Note English Subtitle Is Hardcoded

General
Format : Matroska
Format version : Version 4 / Version 2
File size : 1.66 GiB
Duration : 1 h 25 min
Overall bit rate : 2 775 kb/s

Video
ID : 1
Format : AVC
Format/Info : Advanced Video Codec
Format profile : High@L4.1
Format settings : CABAC / 4 Ref Frames
Format settings, CABAC : Yes
Format settings, RefFrames : 4 frames
Codec ID : V_MPEG4/ISO/AVC
Duration : 1 h 25 min
Bit rate : 2 600 kb/s
Width : 1 920 pixels
Height : 1 080 pixels
Display aspect ratio : 16:9
Frame rate mode : Constant
Frame rate : 23.976 (24000/1001) FPS
Color space : YUV
Chroma subsampling : 4:2:0
Bit depth : 8 bits
Scan type : Progressive
Bits/(Pixel*Frame) : 0.052
Stream size : 1.54 GiB (93%)
Writing library : x264 core 155 r2901 7d0ff22
Default : Yes
Forced : No

Audio
ID : 2
Format : AAC
Format/Info : Advanced Audio Codec
Format profile : LC
Codec ID : A_AAC-2
Duration : 1 h 25 min
Bit rate : 192 kb/s
Channel(s) : 2 channels
Channel positions : Front: L R
Sampling rate : 48.0 kHz
Frame rate : 46.875 FPS (1024 SPF)
Compression mode : Lossy
Stream size : 118 MiB (7%)
Language : Russian
Default : Yes
Forced : No
[/b]

[url=https://pichub.site/image/SYGRY]https://pichub.site/image/SYGRY[/url]
[url=https://pichub.site/image/SYNB6]https://pichub.site/image/SYNB6[/url]
[url=https://pichub.site/image/SYUPt]https://pichub.site/image/SYUPt[/url]
[url=https://pichub.site/image/SYxJ4]https://pichub.site/image/SYxJ4[/url]
[url=https://pichub.site/image/SY0hp]https://pichub.site/image/SY0hp[/url]
[url=https://pichub.site/image/SYLoy]https://pichub.site/image/SYLoy[/url]
[/center]
]]>
MassageRooms - Mia Navarro (Petite young Spanish darling fucked) NEW 18 August 2018 http://glodls.to/torrent.php?id=3602380 http://glodls.to/torrent.php?id=3602380 Sat, 18 Aug 2018 20:51:37 +0100 Adult XXX
http://imgtornado.com/img-5b789db73e0bd.html

http://imgtornado.com/img-5b789ea276f4e.html

Petite young Spanish babe Mia Navarro is lying on the bed in the Massage Rooms and has hired Steve Q to treat her to a pleasure session. Steve begins by working Mia's trapezius muscle, then moves on to rub her shoulders. Pulling out some oil, Steve pours it down Mia's chest, the rubs it into her arms and small boobs. Rubbing his hands up and down her body, Steve stimulates the Spanish starlet's nipples, then turns her over and pours oil on her big booty. Sliding a finger between her cheeks, Steve hears Mia gasp with delight as he inserts a finger in her tight pussy, and after some foreplay, sticks his hard cock inside her and fucks her doggystyle. The pair share an oily fuck until, while fucking Mia son her side, Steve pulls out so she can wank him off onto her stomach.
Tags: Work Fantasies, Amateur, Sex, Wet, Massage, Oil, Doggystyle, Cowgirl, Missionary, Side Fuck, Pussy Licking, Blowjob, Indoors, Cum on Pussy ]]>
FakeHubOriginals - Jureka Del Mar (Vietnam Love Story) NEW 18 August 2018 http://glodls.to/torrent.php?id=3602379 http://glodls.to/torrent.php?id=3602379 Sat, 18 Aug 2018 20:50:28 +0100 Adult XXX
http://imgtornado.com/img-5b789db73a17f.html

http://imgtornado.com/img-5b789ea147091.html

Steve Q is behind enemy lines, bleeding and separated from his unit in the Vietnam jungle. Lying under a tree, he resigns himself to his fate...and the director yells cut. Hopping up, Steve gracefully accepts the director's compliments, who tells him awards are in his acting future. The next scene of the day is the love scene between Steve Q and his co-star, Jureka Del Mar. When it comes time for the big kiss, Steve can't help but get a boner, which causes the director and staff to take a coffee break, but also turns Jureka on. Offering to help Steve out, Jureka puts his hands on her tits and starts wanking his dick. After a sloppy blowjob, Jureka takes Steve's thick cock in her pussy, and Steve pounds her doggystyle while sticking two fingers in her ass. By the time Steve cums on Jureka's pussy, the coffee break is over, and the director returns to find he has now shot a very different genre of movie!
Tags: Outdoors, Sex, Squirt, Wet, Rimjob, Handjob - POV, Deep Throat, Ass Licking, Pussy Licking, Blowjob, Blowjob - POV, Pussy Fingering, Anal Fingering, Cum on Pussy ]]>
FakeHostel - Candy Alexa, Kathy Anderson (Threes A Party) NEW 18 August 2018 http://glodls.to/torrent.php?id=3602378 http://glodls.to/torrent.php?id=3602378 Sat, 18 Aug 2018 20:48:29 +0100 Adult XXX
http://imgtornado.com/img-5b789db73650b.html

http://imgtornado.com/img-5b789e9fb0a15.html

Sexy blonde backpacker Candy Alexa has booked herself a room in the Fake Hostel, and peels off her clothing for a much-needed shower. As she washes her big tits and bubble butt, the Landlord's Wife (Kathy Anderson) appears in the door frame so she can spy on the naked blonde. Hearing someone coming, The Landlord's Wife makes herself scarce as Ricky Pascal enters the room to spy on Candy for himself! Before Candy is any wiser, Ricky hops unto the room's top bunk and introduces himself. Comfortable in the situation, Candy begins to rub cream all over her body including her pink pussy, an act that causes Ricky to pull his cock out to have a wank. Once hard, Ricky is given pause when The Landlord's Wife returns to the room...to give him a blowjob! All three horny humans then engage in an erotic threesome that leaves them all happy they converged on the Fake Hostel.
Tags: Threesome, FFM, Big Tits Worship, Amateur, Bathroom, Shower, Hotel Room, Handjob, Masturbation, Voyeur, Blowjob - Double, Pussy Licking, Blowjob - POV, Cum on Tits ]]>
Blacked - Brooke Benz (Internet Crush) NEW 18 August 2018 http://glodls.to/torrent.php?id=3602377 http://glodls.to/torrent.php?id=3602377 Sat, 18 Aug 2018 20:47:12 +0100 Adult XXX
http://imgtornado.com/img-5b789db7324de.html

http://imgtornado.com/img-5b789e9dda4a1.html

Brooke can't believe it - it is actually happening - she's hooking up with her favorite basketball player and she never really expected to receive a response when she messaged him previously. Now she is waiting for the time to come around and her sexy photos she is sending to him are really hitting the mark. When she arrives at his house, it's no time at all before she is doing everything he wants and so much more.
Tags: Big Ass, Tit Wank, Exclusive, Doggystyle, Facial, Riding, Blonde, Reverse Cowgirl, Big Tits, Interracial ]]>